Santa Clarita Diet | Hermes P2P 5.4.0 | On My SkinWar Games - Der kalte Krieg (4) | Die schnsten Seen auf dem Dach der Welt (0) | Schillerstrasse (1)

WWW.RAW.2018.08.20.HDTV.1080p.English.H264.AAC.-.LatestHDMovies.E...

  • Category TV
  • Type HD
  • Language English
  • Total size 5.2 GB
  • Uploaded By LatestHDM
  • Downloads 78
  • Last checked 37 minutes ago
  • Date uploaded 12 hours ago
  • Seeders 6
  • Leechers 7

Infohash : 6BE006D2824575CE76230E9786AD001E2552B746






Visit OUR Website -http://LatestHDMovies.Org







General
Unique ID : 89210094588699883984249713363589192002 (0x431D3D3F8DB24F3BA53E3C8871A6D942)
Complete name : C:\Users\latest\Documents\WWE Parts 1\WWW.RAW.2018.08.20.HDTV.1080p.English.H264.AAC.-.LatestHDMovies.Exclusive\WWW.RAW.2018.08.20.HDTV.1080p.English.H264.AAC.-.LatestHDMovies.Exclusive.mkv
Format : Matroska
Format version : Version 4 / Version 2
File size : 5.22 GiB
Duration : 2 h 5 min
Overall bit rate : 5 962 kb/s
Movie name : http://LatestHDMovies.Org
Encoded date : UTC 2018-08-21 03:25:13
Writing application : mkvmerge v25.0.0 ('Prog Noir') 32-bit
Writing library : libebml v1.3.6 + libmatroska v1.4.9

Video
ID : 2
Format : AVC
Format/Info : Advanced Video Codec
Format profile : [email protected]
Format settings : CABAC / 3 Ref Frames
Format settings, CABAC : Yes
Format settings, ReFrames : 3 frames
Codec ID : V_MPEG4/ISO/AVC
Duration : 2 h 5 min
Bit rate : 5 805 kb/s
Width : 1 920 pixels
Height : 1 080 pixels
Display aspect ratio : 16:9
Frame rate mode : Variable
Frame rate : 29.664 FPS
Color space : YUV
Chroma subsampling : 4:2:0
Bit depth : 8 bits
Scan type : Progressive
Bits/(Pixel*Frame) : 0.094
Stream size : 5.08 GiB (97%)
Title : http://LatestHDMovies.Org
Language : English
Default : Yes
Forced : No

Audio
ID : 1
Format : AAC
Format/Info : Advanced Audio Codec
Format profile : LC
Codec ID : A_AAC-2
Duration : 2 h 5 min
Bit rate : 154 kb/s
Channel(s) : 2 channels
Channel positions : Front: L R
Sampling rate : 44.1 kHz
Frame rate : 43.066 FPS (1024 SPF)
Compression mode : Lossy
Delay relative to video : -46 ms
Stream size : 139 MiB (3%)
Title : http://LatestHDMovies.Org
Language : English
Default : Yes
Forced : No






Files:

WWW.RAW.2018.08.20.HDTV.1080p.English.H264.AAC.-.LatestHDMovies.Exclusive
  • Tellytorrent Exclusive.txt (0.0 KB)
  • WWW.RAW.2018.08.20.HDTV.1080p.English.H264.AAC.-.LatestHDMovies.Exclusive.mkv (5.2 GB)

There are currently no comments. Feel free to leave one :)

Code:

  • udp://tracker.coppersurfer.tk:6969/announce
  • udp://tracker.pirateparty.gr:6969/announce
  • udp://shadowshq.yi.org:6969/announce
  • udp://eddie4.nl:6969/announce
  • udp://tracker.leechers-paradise.org:6969/announce
  • udp://tracker.opentrackr.org:1337/announce
  • udp://p4p.arenabg.ch:1337/announce
  • udp://p4p.arenabg.com:1337/announce
  • udp://9.rarbg.me:2710/announce
  • udp://9.rarbg.to:2710/announce
  • udp://ipv4.tracker.harry.lu:80/announce
  • udp://public.popcorn-tracker.org:6969/announce
  • udp://tracker.opentrackr.org:1337/announce
  • http://siena.crazyhd.com/announce.php?pid=2ea85e0b733ceaf9aa500a961dc1be51